You are not logged in.

#1 12-04-2012 00:25:21

gouloug
Membre
Registered: 01-10-2012
Posts: 10

Problème d'encodage

Bonjour,
Depuis un mois j'utilise FFd et étant arrivé à la fin de mon montage diapo (100 diapos)j'ai lancé la génération du film avec bande son.
Que ce soit pour faire une version pour PC ou pour lecteur de salon la génération plante avec le message suivant : "Erreur de l'encodeur".
Cela arrive tout aussi bien au tout début de la génération (une dizaine de diapos) qu'arrivé pratiquement à la fin (85 % de l'encodage).
Je ne sais quoi faire.
Mon PC est sous XP 3SP.
Merci de m'apporte une aide.
Gouloug

Offline

#2 12-04-2012 06:54:39

domledom
Administrateur
Registered: 09-17-2011
Posts: 1,080

Re: Problème d'encodage

Bonjour

Pour t'aider, j'ai besoin de plus d'information.

Peux tu lancer ffdiaporama depuis un terminal windows :
  menu démarrer/exécuter
  taper cmd
  taper cd "c:\program files\ffdiaporama"
  taper ffdiaporama
Cela va afficher toute sorte d'informations en plus du programme

Lances l'encodage et copie ici les messages qui apparaissent au moment du plantage


Processeur i5 - 8 Go RAM - Manjaro Linux KDE (64 bits) / Windows 7 (64 bits)

Offline

#3 12-04-2012 15:27:55

gouloug
Membre
Registered: 01-10-2012
Posts: 10

Re: Problème d'encodage

Bonjour,
Merci pour la rapidité de ta réponse.
Toutefois c'est là que je mesure que je suis un primate en informatique.
J'ai tapé le texte mais n'obtient pour seule réponse que le message suivant : Syntaxe du nom de fichier, de répertoire ou de volume incorrecte; malgré différentes tentatives.
Par ailleurs je suppose que je dois ouvrir le projet que je veux générer pour lancer l'encodage.
Merci

Offline

#4 12-04-2012 17:50:17

gouloug
Membre
Registered: 01-10-2012
Posts: 10

Re: Problème d'encodage

Bonjour,
Finalement j’ai réussi à rentrer dans le programme.
Voici les informations qui se sont affichées au plantage :
frame= 2651 fps=1.1 q=0.0 size=   41366kB time=00:01:45.52 bitrate=3211.4kbits/s
frame= 2653 fps=1.1 q=0.0 size=   41371kB time=00:01:45.60 bitrate=3209.4kbits/s
frame= 2655 fps=1.1 q=0.0 size=   41381kB time=00:01:45.68 bitrate=3207.7kbits/s
frame= 2657 fps=1.1 q=0.0 size=   41389kB time=00:01:45.76 bitrate=3205.9kbits/s
frame= 2659 fps=1.1 q=0.0 size=   41402kB time=00:01:45.84 bitrate=3204.5kbits/s
frame= 2661 fps=1.1 q=0.0 size=   41407kB time=00:01:45.92 bitrate=3202.4kbits/s
frame= 2663 fps=1.1 q=0.0 size=   41417kB time=00:01:46.00 bitrate=3200.8kbits/s
frame= 2665 fps=1.1 q=0.0 size=   41425kB time=00:01:46.08 bitrate=3199.0kbits/s
frame= 2667 fps=1.1 q=0.0 size=   41438kB time=00:01:46.16 bitrate=3197.6kbits/s
frame= 2669 fps=1.1 q=0.0 size=   41443kB time=00:01:46.24 bitrate=3195.6kbits/s
frame= 2671 fps=1.1 q=0.0 size=   41453kB time=00:01:46.32 bitrate=3194.0kbits/s
frame= 2673 fps=1.1 q=0.0 size=   41461kB time=00:01:46.40 bitrate=3192.2kbits/s
frame= 2675 fps=1.1 q=0.0 size=   41474kB time=00:01:46.48 bitrate=3190.8kbits/s
frame= 2677 fps=1.1 q=0.0 size=   41478kB time=00:01:46.56 bitrate=3188.7kbits/s
frame= 2679 fps=1.1 q=0.0 size=   41489kB time=00:01:46.64 bitrate=3187.1kbits/s
frame= 2681 fps=1.1 q=0.0 size=   41496kB time=00:01:46.72 bitrate=3185.3kbits/s
frame= 2683 fps=1.1 q=0.0 size=   41509kB time=00:01:46.80 bitrate=3183.9kbits/s
frame= 2685 fps=1.1 q=0.0 size=   41514kB time=00:01:46.88 bitrate=3181.9kbits/s
frame= 2687 fps=1.1 q=0.0 size=   41524kB time=00:01:46.96 bitrate=3180.3kbits/s
frame= 2689 fps=1.1 q=0.0 size=   41532kB time=00:01:47.04 bitrate=3178.6kbits/s
frame= 2691 fps=1.1 q=0.0 size=   41545kB time=00:01:47.12 bitrate=3177.2kbits/s
frame= 2693 fps=1.1 q=0.0 size=   41550kB time=00:01:47.20 bitrate=3175.2kbits/s
frame= 2695 fps=1.1 q=0.0 size=   41560kB time=00:01:47.28 bitrate=3173.6kbits/s
frame= 2697 fps=1.1 q=0.0 size=   41568kB time=00:01:47.36 bitrate=3171.8kbits/s
frame= 2699 fps=1.1 q=0.0 size=   41581kB time=00:01:47.44 bitrate=3170.4kbits/s
frame= 2701 fps=1.1 q=0.0 size=   41586kB time=00:01:47.52 bitrate=3168.5kbits/s
frame= 2703 fps=1.1 q=0.0 size=   41596kB time=00:01:47.60 bitrate=3166.9kbits/s
frame= 2705 fps=1.1 q=0.0 size=   41604kB time=00:01:47.68 bitrate=3165.1kbits/s
frame= 2707 fps=1.1 q=0.0 size=   41617kB time=00:01:47.76 bitrate=3163.8kbits/s
frame= 2709 fps=1.1 q=0.0 size=   41622kB time=00:01:47.84 bitrate=3161.8kbits/s
frame= 2711 fps=1.1 q=0.0 size=   41632kB time=00:01:47.92 bitrate=3160.2kbits/s
frame= 2713 fps=1.1 q=0.0 size=   41640kB time=00:01:48.00 bitrate=3158.5kbits/s
frame= 2715 fps=1.1 q=0.0 size=   41653kB time=00:01:48.08 bitrate=3157.1kbits/s
frame= 2717 fps=1.1 q=0.0 size=   41658kB time=00:01:48.16 bitrate=3155.1kbits/s
frame= 2719 fps=1.1 q=0.0 size=   41668kB time=00:01:48.24 bitrate=3153.6kbits/s
frame= 2721 fps=1.1 q=0.0 size=   41676kB time=00:01:48.32 bitrate=3151.8kbits/s
frame= 2723 fps=1.1 q=0.0 size=   41689kB time=00:01:48.40 bitrate=3150.5kbits/s
[16:15:12.453:INFORMATION]      Chargement du fichier :Roue 15.JPG
[16:15:14.484:INFORMATION]      Redimensionne l'image Ó 8MPix
[16:15:16.671:INFORMATION]      Free memory for max value (180 Mb) : Before=6 ca
ched objects for 180 Mb - After=5 cached objects for 152 Mb
frame= 2725 fps=1.1 q=0.0 size=   41693kB time=00:01:48.48 bitrate=3148.5kbits/s
frame= 2727 fps=1.1 q=0.0 size=   41704kB time=00:01:48.56 bitrate=3147.0kbits/s
frame= 2729 fps=1.1 q=0.0 size=   41712kB time=00:01:48.64 bitrate=3145.3kbits/s
frame= 2731 fps=1.1 q=0.0 size=   41724kB time=00:01:48.72 bitrate=3143.9kbits/s
frame= 2733 fps=1.1 q=0.0 size=   41729kB time=00:01:48.80 bitrate=3142.0kbits/s
frame= 2735 fps=1.1 q=0.0 size=   41739kB time=00:01:48.88 bitrate=3140.4kbits/s
frame= 2737 fps=1.1 q=0.0 size=   41747kB time=00:01:48.96 bitrate=3138.7kbits/s
frame= 2739 fps=1.1 q=0.0 size=   41874kB time=00:01:49.04 bitrate=3145.9kbits/s
frame= 2741 fps=1.1 q=0.0 size=   41911kB time=00:01:49.12 bitrate=3146.4kbits/s
frame= 2743 fps=1.1 q=1.0 size=   42061kB time=00:01:49.20 bitrate=3155.4kbits/s
frame= 2745 fps=1.1 q=0.0 size=   42276kB time=00:01:49.28 bitrate=3169.2kbits/s
frame= 2747 fps=1.1 q=5.0 size=   42527kB time=00:01:49.36 bitrate=3185.6kbits/s
frame= 2749 fps=1.1 q=7.0 size=   42623kB time=00:01:49.44 bitrate=3190.5kbits/s
frame= 2751 fps=1.1 q=9.0 size=   42800kB time=00:01:49.52 bitrate=3201.4kbits/s
frame= 2753 fps=1.1 q=17.0 size=   42928kB time=00:01:49.60 bitrate=3208.6kbits/
frame= 2756 fps=1.1 q=17.0 size=   42978kB time=00:01:49.72 bitrate=3208.9kbits/
frame= 2758 fps=1.1 q=15.0 size=   43041kB time=00:01:49.80 bitrate=3211.2kbits/
frame= 2760 fps=1.1 q=13.0 size=   43116kB time=00:01:49.88 bitrate=3214.5kbits/
frame= 2762 fps=1.1 q=16.0 size=   43245kB time=00:01:49.96 bitrate=3221.8kbits/
frame= 2764 fps=1.1 q=8.0 size=   43719kB time=00:01:50.04 bitrate=3254.7kbits/s
frame= 2767 fps=1.1 q=13.0 size=   43722kB time=00:01:50.16 bitrate=3251.4kbits/
frame= 2770 fps=1.1 q=13.0 size=   43728kB time=00:01:50.28 bitrate=3248.3kbits/
frame= 2772 fps=1.1 q=10.0 size=   43796kB time=00:01:50.36 bitrate=3251.0kbits/
frame= 2775 fps=1.1 q=6.0 size=   43798kB time=00:01:50.48 bitrate=3247.6kbits/s
frame= 2778 fps=1.1 q=7.0 size=   43856kB time=00:01:50.60 bitrate=3248.4kbits/s
frame= 2778 fps=1.1 q=7.0 size=   43856kB time=00:01:50.60 bitrate=3248.3kbits/s
frame= 2780 fps=1.1 q=4.0 size=   43910kB time=00:01:50.68 bitrate=3250.0kbits/s
frame= 2783 fps=1.1 q=0.0 size=   43916kB time=00:01:50.80 bitrate=3247.0kbits/s
frame= 2785 fps=1.1 q=2.0 size=   43943kB time=00:01:50.88 bitrate=3246.6kbits/s
frame= 2787 fps=1.1 q=0.0 size=   43967kB time=00:01:50.96 bitrate=3246.0kbits/s
frame= 2789 fps=1.1 q=0.0 size=   43979kB time=00:01:51.04 bitrate=3244.6kbits/s
frame= 2791 fps=1.1 q=0.0 size=   43995kB time=00:01:51.12 bitrate=3243.4kbits/s
frame= 2793 fps=1.1 q=0.0 size=   44019kB time=00:01:51.20 bitrate=3242.8kbits/s
frame= 2795 fps=1.1 q=0.0 size=   44046kB time=00:01:51.28 bitrate=3242.5kbits/s
frame= 2797 fps=1.1 q=0.0 size=   44058kB time=00:01:51.36 bitrate=3241.0kbits/s
frame= 2797 fps=1.1 q=0.0 size=   44065kB time=00:01:51.36 bitrate=3241.6kbits/s
frame= 2798 fps=1.1 q=0.0 size=   44065kB time=00:01:51.40 bitrate=3240.4kbits/s
frame= 2798 fps=1.1 q=0.0 size=   44066kB time=00:01:51.40 bitrate=3240.5kbits/s
frame= 2798 fps=1.1 q=0.0 size=   44073kB time=00:01:51.40 bitrate=3241.0kbits/s
frame= 2799 fps=1.1 q=0.0 size=   44073kB time=00:01:51.44 bitrate=3239.9kbits/s
frame= 2800 fps=1.1 q=0.0 size=   44087kB time=00:01:51.48 bitrate=3239.7kbits/s
frame= 2802 fps=1.1 q=0.0 size=   44105kB time=00:01:51.56 bitrate=3238.7kbits/s
frame= 2804 fps=1.1 q=0.0 size=   44126kB time=00:01:51.64 bitrate=3237.9kbits/s
frame= 2806 fps=1.1 q=0.0 size=   44144kB time=00:01:51.72 bitrate=3236.9kbits/s
frame= 2808 fps=1.1 q=0.0 size=   44165kB time=00:01:51.80 bitrate=3236.1kbits/s
frame= 2810 fps=1.1 q=0.0 size=   44184kB time=00:01:51.88 bitrate=3235.2kbits/s
frame= 2812 fps=1.1 q=0.0 size=   44204kB time=00:01:51.96 bitrate=3234.4kbits/s
frame= 2814 fps=1.1 q=0.0 size=   44223kB time=00:01:52.04 bitrate=3233.4kbits/s
frame= 2816 fps=1.1 q=0.0 size=   44243kB time=00:01:52.12 bitrate=3232.6kbits/s
frame= 2818 fps=1.1 q=0.0 size=   44262kB time=00:01:52.20 bitrate=3231.7kbits/s
frame= 2820 fps=1.1 q=0.0 size=   44282kB time=00:01:52.28 bitrate=3230.9kbits/s
frame= 2822 fps=1.1 q=0.0 size=   44301kB time=00:01:52.36 bitrate=3229.9kbits/s
frame= 2824 fps=1.1 q=0.0 size=   44322kB time=00:01:52.44 bitrate=3229.1kbits/s
frame= 2826 fps=1.1 q=0.0 size=   44340kB time=00:01:52.52 bitrate=3228.2kbits/s
frame= 2828 fps=1.1 q=0.0 size=   44361kB time=00:01:52.60 bitrate=3227.4kbits/s
frame= 2830 fps=1.1 q=0.0 size=   44379kB time=00:01:52.68 bitrate=3226.4kbits/s
frame= 2832 fps=1.1 q=0.0 size=   44400kB time=00:01:52.76 bitrate=3225.7kbits/s
frame= 2834 fps=1.1 q=0.0 size=   44419kB time=00:01:52.84 bitrate=3224.7kbits/s
frame= 2835 fps=1.1 q=0.0 size=   44438kB time=00:01:52.88 bitrate=3225.0kbits/s
frame= 2836 fps=1.1 q=0.0 size=   44439kB time=00:01:52.92 bitrate=3223.9kbits/s
frame= 2836 fps=1.1 q=0.0 size=   44439kB time=00:01:52.92 bitrate=3223.9kbits/s
frame= 2836 fps=1.1 q=0.0 size=   44449kB time=00:01:52.92 bitrate=3224.6kbits/s
frame= 2839 fps=1.1 q=0.0 size=   44465kB time=00:01:53.04 bitrate=3222.4kbits/s
frame= 2841 fps=1.1 q=0.0 size=   44489kB time=00:01:53.12 bitrate=3221.8kbits/s
frame= 2843 fps=1.1 q=0.0 size=   44517kB time=00:01:53.20 bitrate=3221.5kbits/s
frame= 2845 fps=1.1 q=0.0 size=   44528kB time=00:01:53.28 bitrate=3220.1kbits/s
frame= 2847 fps=1.1 q=0.0 size=   44544kB time=00:01:53.36 bitrate=3219.0kbits/s
frame= 2849 fps=1.1 q=0.0 size=   44567kB time=00:01:53.44 bitrate=3218.4kbits/s
frame= 2851 fps=1.1 q=0.0 size=   44595kB time=00:01:53.52 bitrate=3218.1kbits/s
frame= 2853 fps=1.1 q=0.0 size=   44606kB time=00:01:53.60 bitrate=3216.7kbits/s
frame= 2855 fps=1.1 q=0.0 size=   44622kB time=00:01:53.68 bitrate=3215.6kbits/s
frame= 2857 fps=1.1 q=0.0 size=   44646kB time=00:01:53.76 bitrate=3215.0kbits/s
frame= 2859 fps=1.1 q=0.0 size=   44673kB time=00:01:53.84 bitrate=3214.7kbits/s
frame= 2861 fps=1.1 q=0.0 size=   44685kB time=00:01:53.92 bitrate=3213.3kbits/s
frame= 2863 fps=1.1 q=0.0 size=   44700kB time=00:01:54.00 bitrate=3212.2kbits/s
frame= 2865 fps=1.1 q=0.0 size=   44724kB time=00:01:54.08 bitrate=3211.6kbits/s
frame= 2867 fps=1.1 q=0.0 size=   44751kB time=00:01:54.16 bitrate=3211.3kbits/s
frame= 2869 fps=1.1 q=0.0 size=   44763kB time=00:01:54.24 bitrate=3209.9kbits/s
frame= 2871 fps=1.1 q=0.0 size=   44779kB time=00:01:54.32 bitrate=3208.8kbits/s
frame= 2873 fps=1.1 q=0.0 size=   44802kB time=00:01:54.40 bitrate=3208.2kbits/s
[16:17:19.656:INFORMATION]      Chargement du fichier :Roue 16.JPG
[16:17:21.296:INFORMATION]      Redimensionne l'image Ó 8MPix
[16:17:23.500:INFORMATION]      Free memory for max value (180 Mb) : Before=6 ca
ched objects for 180 Mb - After=5 cached objects for 152 Mb
frame= 2875 fps=1.1 q=0.0 size=   44830kB time=00:01:54.48 bitrate=3207.9kbits/s
frame= 2877 fps=1.1 q=0.0 size=   44841kB time=00:01:54.56 bitrate=3206.5kbits/s
frame= 2879 fps=1.1 q=0.0 size=   44857kB time=00:01:54.64 bitrate=3205.4kbits/s
frame= 2881 fps=1.1 q=0.0 size=   44881kB time=00:01:54.72 bitrate=3204.9kbits/s
frame= 2883 fps=1.1 q=0.0 size=   44908kB time=00:01:54.80 bitrate=3204.6kbits/s
frame= 2885 fps=1.1 q=0.0 size=   44919kB time=00:01:54.88 bitrate=3203.2kbits/s
frame= 2887 fps=1.1 q=0.0 size=   44935kB time=00:01:54.96 bitrate=3202.1kbits/s
frame= 2889 fps=1.1 q=0.0 size=   44997kB time=00:01:55.04 bitrate=3204.2kbits/s
frame= 2891 fps=1.1 q=0.0 size=   45211kB time=00:01:55.12 bitrate=3217.2kbits/s
frame= 2893 fps=1.1 q=0.0 size=   45254kB time=00:01:55.20 bitrate=3218.1kbits/s
frame= 2895 fps=1.1 q=0.0 size=   45345kB time=00:01:55.28 bitrate=3222.3kbits/s
frame= 2897 fps=1.1 q=0.0 size=   45536kB time=00:01:55.36 bitrate=3233.6kbits/s
frame= 2899 fps=1.1 q=0.0 size=   45737kB time=00:01:55.44 bitrate=3245.7kbits/s
frame= 2901 fps=1.1 q=0.0 size=   45796kB time=00:01:55.52 bitrate=3247.6kbits/s
frame= 2903 fps=1.1 q=2.0 size=   45931kB time=00:01:55.60 bitrate=3254.9kbits/s
frame= 2904 fps=1.1 q=1.0 size=   45969kB time=00:01:55.64 bitrate=3256.5kbits/s
frame= 2904 fps=1.1 q=1.0 size=   46053kB time=00:01:55.64 bitrate=3262.4kbits/s
frame= 2905 fps=1.1 q=2.0 size=   46054kB time=00:01:55.68 bitrate=3261.4kbits/s
frame= 2905 fps=1.1 q=2.0 size=   46054kB time=00:01:55.68 bitrate=3261.4kbits/s
frame= 2905 fps=1.1 q=2.0 size=   46110kB time=00:01:55.68 bitrate=3265.3kbits/s
frame= 2906 fps=1.1 q=1.0 size=   46110kB time=00:01:55.72 bitrate=3264.2kbits/s
frame= 2906 fps=1.1 q=1.0 size=   46111kB time=00:01:55.72 bitrate=3264.3kbits/s
frame= 2908 fps=1.1 q=1.0 size=   46202kB time=00:01:55.80 bitrate=3268.5kbits/s
frame= 2910 fps=1.1 q=4.0 size=   46365kB time=00:01:55.88 bitrate=3277.7kbits/s
frame= 2912 fps=1.1 q=4.0 size=   46511kB time=00:01:55.96 bitrate=3285.7kbits/s
frame= 2914 fps=1.1 q=4.0 size=   46530kB time=00:01:56.04 bitrate=3284.9kbits/s
frame= 2916 fps=1.1 q=0.0 size=   46534kB time=00:01:56.12 bitrate=3282.9kbits/s
frame= 2919 fps=1.1 q=2.0 size=   46545kB time=00:01:56.24 bitrate=3280.3kbits/s
frame= 2921 fps=1.1 q=0.0 size=   46551kB time=00:01:56.32 bitrate=3278.4kbits/s
frame= 2924 fps=1.1 q=0.0 size=   46560kB time=00:01:56.44 bitrate=3275.6kbits/s
frame= 2925 fps=1.1 q=0.0 size=   46563kB time=00:01:56.48 bitrate=3274.8kbits/s
frame= 2925 fps=1.1 q=0.0 size=   46565kB time=00:01:56.48 bitrate=3274.9kbits/s
frame= 2926 fps=1.1 q=0.0 size=   46566kB time=00:01:56.52 bitrate=3273.8kbits/s
frame= 2926 fps=1.1 q=0.0 size=   46566kB time=00:01:56.52 bitrate=3273.9kbits/s
frame= 2926 fps=1.1 q=0.0 size=   46568kB time=00:01:56.52 bitrate=3274.0kbits/s
frame= 2928 fps=1.1 q=0.0 size=   46572kB time=00:01:56.60 bitrate=3272.0kbits/s
frame= 2930 fps=1.1 q=0.0 size=   46579kB time=00:01:56.68 bitrate=3270.2kbits/s
frame= 2932 fps=1.1 q=0.0 size=   46584kB time=00:01:56.76 bitrate=3268.4kbits/s
frame= 2935 fps=1.1 q=0.0 size=   46594kB time=00:01:56.88 bitrate=3265.7kbits/s
frame= 2937 fps=1.1 q=0.0 size=   46600kB time=00:01:56.96 bitrate=3263.9kbits/s
frame= 2940 fps=1.1 q=0.0 size=   46609kB time=00:01:57.08 bitrate=3261.2kbits/s
frame= 2942 fps=1.1 q=0.0 size=   46615kB time=00:01:57.16 bitrate=3259.4kbits/s
frame= 2944 fps=1.1 q=0.0 size=   46621kB time=00:01:57.24 bitrate=3257.6kbits/s
frame= 2946 fps=1.1 q=0.0 size=   46628kB time=00:01:57.32 bitrate=3255.8kbits/s
frame= 2948 fps=1.1 q=0.0 size=   46633kB time=00:01:57.40 bitrate=3254.0kbits/s
frame= 2950 fps=1.1 q=0.0 size=   46640kB time=00:01:57.48 bitrate=3252.2kbits/s
frame= 2952 fps=1.1 q=0.0 size=   46646kB time=00:01:57.56 bitrate=3250.4kbits/s
frame= 2954 fps=1.1 q=0.0 size=   46652kB time=00:01:57.64 bitrate=3248.7kbits/s
frame= 2956 fps=1.1 q=0.0 size=   46658kB time=00:01:57.72 bitrate=3246.9kbits/s
frame= 2959 fps=1.1 q=0.0 size=   46667kB time=00:01:57.84 bitrate=3244.2kbits/s
frame= 2961 fps=1.1 q=0.0 size=   46673kB time=00:01:57.92 bitrate=3242.4kbits/s
frame= 2964 fps=1.1 q=0.0 size=   46682kB time=00:01:58.04 bitrate=3239.8kbits/s
frame= 2966 fps=1.1 q=0.0 size=   46689kB time=00:01:58.12 bitrate=3238.0kbits/s
frame= 2968 fps=1.1 q=0.0 size=   46695kB time=00:01:58.20 bitrate=3236.2kbits/s
frame= 2971 fps=1.1 q=0.0 size=   46706kB time=00:01:58.32 bitrate=3233.7kbits/s
frame= 2973 fps=1.1 q=0.0 size=   46710kB time=00:01:58.40 bitrate=3231.8kbits/s
frame= 2976 fps=1.1 q=0.0 size=   46719kB time=00:01:58.52 bitrate=3229.2kbits/s
frame= 2978 fps=1.1 q=0.0 size=   46728kB time=00:01:58.60 bitrate=3227.6kbits/s
frame= 2980 fps=1.1 q=0.0 size=   46731kB time=00:01:58.68 bitrate=3225.7kbits/s
frame= 2983 fps=1.1 q=0.0 size=   46741kB time=00:01:58.80 bitrate=3223.1kbits/s
frame= 2985 fps=1.1 q=0.0 size=   46747kB time=00:01:58.88 bitrate=3221.3kbits/s
frame= 2988 fps=1.1 q=0.0 size=   46756kB time=00:01:59.00 bitrate=3218.7kbits/s
frame= 2990 fps=1.1 q=0.0 size=   46762kB time=00:01:59.08 bitrate=3217.0kbits/s
frame= 2992 fps=1.1 q=0.0 size=   46768kB time=00:01:59.16 bitrate=3215.2kbits/s
frame= 2994 fps=1.1 q=0.0 size=   46777kB time=00:01:59.24 bitrate=3213.6kbits/s
frame= 2996 fps=1.1 q=0.0 size=   46780kB time=00:01:59.32 bitrate=3211.7kbits/s
frame= 2999 fps=1.1 q=0.0 size=   46790kB time=00:01:59.44 bitrate=3209.2kbits/s
frame= 3001 fps=1.1 q=0.0 size=   46796kB time=00:01:59.52 bitrate=3207.4kbits/s
frame= 3004 fps=1.1 q=0.0 size=   46805kB time=00:01:59.64 bitrate=3204.8kbits/s
frame= 3006 fps=1.1 q=0.0 size=   46811kB time=00:01:59.72 bitrate=3203.1kbits/s
frame= 3008 fps=1.1 q=0.0 size=   46817kB time=00:01:59.80 bitrate=3201.4kbits/s
frame= 3010 fps=1.1 q=0.0 size=   46824kB time=00:01:59.88 bitrate=3199.7kbits/s
frame= 3012 fps=1.1 q=8.0 size=   46829kB time=00:01:59.96 bitrate=3198.0kbits/s
frame= 3015 fps=1.1 q=11.0 size=   47200kB time=00:02:00.08 bitrate=3220.0kbits/
frame= 3018 fps=1.1 q=0.0 size=   47214kB time=00:02:00.20 bitrate=3217.8kbits/s
frame= 3021 fps=1.1 q=0.0 size=   47231kB time=00:02:00.32 bitrate=3215.7kbits/s
frame= 3024 fps=1.1 q=0.0 size=   47247kB time=00:02:00.44 bitrate=3213.6kbits/s
[16:19:40.156:INFORMATION]      Chargement du fichier :Roue 17.JPG
[16:19:42.078:INFORMATION]      Redimensionne l'image Ó 8MPix
[16:19:44.281:INFORMATION]      Free memory for max value (180 Mb) : Before=6 ca
ched objects for 180 Mb - After=5 cached objects for 152 Mb
frame= 3025 fps=1.1 q=0.0 size=   47251kB time=00:02:00.48 bitrate=3212.8kbits/s
frame= 3027 fps=1.1 q=0.0 size=   47265kB time=00:02:00.56 bitrate=3211.7kbits/s
frame= 3029 fps=1.1 q=0.0 size=   47271kB time=00:02:00.64 bitrate=3209.9kbits/s
frame= 3031 fps=1.1 q=0.0 size=   47282kB time=00:02:00.72 bitrate=3208.5kbits/s
frame= 3033 fps=1.1 q=0.0 size=   47290kB time=00:02:00.80 bitrate=3207.0kbits/s
frame= 3035 fps=1.1 q=0.0 size=   47304kB time=00:02:00.88 bitrate=3205.8kbits/s
frame= 3037 fps=1.1 q=0.0 size=   47309kB time=00:02:00.96 bitrate=3204.0kbits/s
frame= 3039 fps=1.1 q=0.0 size=   47354kB time=00:02:01.04 bitrate=3204.9kbits/s
frame= 3041 fps=1.1 q=0.0 size=   47420kB time=00:02:01.12 bitrate=3207.3kbits/s
frame= 3043 fps=1.1 q=0.0 size=   47623kB time=00:02:01.20 bitrate=3218.9kbits/s
frame= 3045 fps=1.1 q=2.0 size=   47705kB time=00:02:01.28 bitrate=3222.3kbits/s
frame= 3047 fps=1.1 q=1.0 size=   47826kB time=00:02:01.36 bitrate=3228.3kbits/s
frame= 3049 fps=1.1 q=1.0 size=   47954kB time=00:02:01.44 bitrate=3234.9kbits/s
frame= 3051 fps=1.1 q=3.0 size=   48210kB time=00:02:01.52 bitrate=3250.0kbits/s
frame= 3053 fps=1.1 q=6.0 size=   48291kB time=00:02:01.60 bitrate=3253.3kbits/s
frame= 3054 fps=1.1 q=3.0 size=   48326kB time=00:02:01.64 bitrate=3254.6kbits/s
frame= 3054 fps=1.1 q=3.0 size=   48407kB time=00:02:01.64 bitrate=3260.0kbits/s
[16:42:18.531:INFORMATION]      Stop l'encodeur
frame= 3055 fps=1.1 q=6.0 size=   48407kB time=00:02:01.68 bitrate=3259.0kbits/s
frame= 3055 fps=0.8 q=6.0 size=   48408kB time=00:02:01.68 bitrate=3259.0kbits/s
pipe:: Input/output error
frame= 3055 fps=0.8 q=6.0 size=   48483kB time=00:02:12.89 bitrate=2988.6kbits/s
frame= 3055 fps=0.8 q=6.0 size=   48483kB time=00:02:24.35 bitrate=2751.5kbits/s
frame= 3055 fps=0.8 q=6.0 size=   48483kB time=00:02:36.23 bitrate=2542.2kbits/s
frame= 3055 fps=0.8 q=6.0 size=   48483kB time=00:02:47.94 bitrate=2364.9kbits/s
frame= 3055 fps=0.8 q=6.0 size=   48483kB time=00:02:59.70 bitrate=2210.2kbits/s
frame= 3055 fps=0.8 q=6.0 size=   48483kB time=00:03:10.79 bitrate=2081.7kbits/s
frame= 3055 fps=0.8 q=6.0 size=   48483kB time=00:03:21.35 bitrate=1972.5kbits/s
frame= 3055 fps=0.8 q=6.0 size=   48483kB time=00:03:31.35 bitrate=1879.1kbits/s
frame= 3055 fps=0.8 q=6.0 size=   48483kB time=00:03:41.64 bitrate=1792.0kbits/s
frame= 3055 fps=0.8 q=6.0 size=   48483kB time=00:03:51.71 bitrate=1714.1kbits/s
frame= 3055 fps=0.8 q=6.0 size=   48483kB time=00:04:01.95 bitrate=1641.6kbits/s
frame= 3055 fps=0.8 q=6.0 size=   48483kB time=00:04:11.87 bitrate=1576.9kbits/s
frame= 3055 fps=0.8 q=6.0 size=   48483kB time=00:04:23.79 bitrate=1505.6kbits/s
frame= 3055 fps=0.8 q=6.0 size=   48483kB time=00:04:38.38 bitrate=1426.7kbits/s
frame= 3055 fps=0.8 q=6.0 size=   48483kB time=00:04:50.91 bitrate=1365.3kbits/s
frame= 3055 fps=0.8 q=6.0 size=   48483kB time=00:05:03.13 bitrate=1310.2kbits/s
frame= 3055 fps=0.8 q=6.0 size=   48483kB time=00:05:15.87 bitrate=1257.4kbits/s
frame= 3055 fps=0.8 q=6.0 size=   48483kB time=00:05:28.37 bitrate=1209.5kbits/s
frame= 3055 fps=0.8 q=6.0 size=   48483kB time=00:05:40.78 bitrate=1165.5kbits/s
frame= 3055 fps=0.8 q=6.0 size=   48483kB time=00:05:53.33 bitrate=1124.1kbits/s
frame= 3055 fps=0.8 q=6.0 size=   48483kB time=00:06:05.02 bitrate=1088.1kbits/s
frame= 3055 fps=0.8 q=6.0 size=   48483kB time=00:06:17.33 bitrate=1052.6kbits/s
frame= 3055 fps=0.8 q=6.0 size=   48483kB time=00:06:29.81 bitrate=1018.9kbits/s
frame= 3055 fps=0.8 q=6.0 size=   48483kB time=00:06:42.42 bitrate= 987.0kbits/s
frame= 3055 fps=0.8 q=6.0 size=   48483kB time=00:06:55.07 bitrate= 956.9kbits/s
frame= 3055 fps=0.8 q=6.0 size=   48483kB time=00:07:07.70 bitrate= 928.6kbits/s
frame= 3055 fps=0.8 q=6.0 size=   48483kB time=00:07:20.50 bitrate= 901.6kbits/s
frame= 3055 fps=0.8 q=6.0 size=   48483kB time=00:07:31.48 bitrate= 879.7kbits/s
frame= 3055 fps=0.8 q=6.0 size=   48483kB time=00:07:44.62 bitrate= 854.8kbits/s
frame= 3055 fps=0.8 q=6.0 size=   48483kB time=00:07:57.32 bitrate= 832.1kbits/s
frame= 3055 fps=0.8 q=6.0 size=   48483kB time=00:08:10.01 bitrate= 810.5kbits/s
frame= 3055 fps=0.8 q=6.0 size=   48483kB time=00:08:22.15 bitrate= 790.9kbits/s
frame= 3055 fps=0.8 q=6.0 size=   48483kB time=00:08:33.99 bitrate= 772.7kbits/s
frame= 3055 fps=0.8 q=6.0 size=   48483kB time=00:08:46.68 bitrate= 754.1kbits/s
frame= 3055 fps=0.8 q=6.0 size=   48483kB time=00:08:58.93 bitrate= 737.0kbits/s
frame= 3055 fps=0.8 q=6.0 size=   48483kB time=00:09:10.58 bitrate= 721.4kbits/s
frame= 3055 fps=0.8 q=6.0 size=   48483kB time=00:09:22.05 bitrate= 706.6kbits/s
frame= 3055 fps=0.8 q=6.0 size=   48483kB time=00:09:33.66 bitrate= 692.3kbits/s
frame= 3055 fps=0.8 q=6.0 size=   48483kB time=00:09:45.18 bitrate= 678.7kbits/s
frame= 3055 fps=0.8 q=6.0 size=   48483kB time=00:09:56.66 bitrate= 665.7kbits/s
frame= 3055 fps=0.8 q=6.0 size=   48483kB time=00:10:08.56 bitrate= 652.6kbits/s
frame= 3055 fps=0.8 q=0.0 Lsize=   58782kB time=00:10:21.00 bitrate= 775.4kbits/
s
video:46471kB audio:12130kB subtitle:0 global headers:0kB muxing overhead 0.3104
73%
[libx264 @ 00c47340] frame I:13    Avg QP:12.37  size:297461
[libx264 @ 00c47340] frame P:978   Avg QP: 2.28  size: 35446
[libx264 @ 00c47340] frame B:2064  Avg QP: 2.51  size:  4386
[libx264 @ 00c47340] consecutive B-frames:  9.1%  2.0%  1.6% 87.3%
[libx264 @ 00c47340] mb I  I16..4: 14.8%  9.2% 75.9%
[libx264 @ 00c47340] mb P  I16..4:  2.0%  0.1%  0.5%  P16..4: 48.3%  0.3%  0.7%
0.0%  0.0%    skip:48.1%
[libx264 @ 00c47340] mb B  I16..4:  0.0%  0.0%  0.0%  B16..8:  1.0%  0.0%  0.0%
direct:16.1%  skip:82.9%  L0:18.0% L1:81.4% BI: 0.6%
[libx264 @ 00c47340] 8x8 transform intra:5.3% inter:10.5%
[libx264 @ 00c47340] coded y,uvDC,uvAC intra: 45.4% 45.4% 44.5% inter: 8.5% 13.2
% 12.8%
[libx264 @ 00c47340] i16 v,h,dc,p: 96%  2%  1%  1%
[libx264 @ 00c47340] i8 v,h,dc,ddl,ddr,vr,hd,vl,hu: 12% 30% 23%  3%  7%  5%  7%
5%  9%
[libx264 @ 00c47340] i4 v,h,dc,ddl,ddr,vr,hd,vl,hu: 16% 20% 14%  4% 12%  7%  9%
8% 11%
[libx264 @ 00c47340] i8c dc,h,v,p: 72% 12%  9%  6%
[libx264 @ 00c47340] Weighted P-Frames: Y:0.0% UV:0.0%
[libx264 @ 00c47340] ref P L0: 98.3%  1.3%  0.5%
[libx264 @ 00c47340] ref B L0: 96.9%  2.8%  0.2%
[libx264 @ 00c47340] ref B L1: 98.6%  1.4%
[libx264 @ 00c47340] kb/s:3115.25
[16:42:42.375:INFORMATION]      Chargement du fichier :Titre Diaporama.JPG
[16:42:45.062:INFORMATION]      Redimensionne l'image Ó 8MPix
[16:42:47.250:INFORMATION]      Free memory for max value (180 Mb) : Before=6 ca
ched objects for 180 Mb - After=5 cached objects for 152 Mb
J'espère qu'elles te seront utiles et que c'est ce que tu cherchais;

Offline

#5 12-04-2012 22:36:57

domledom
Administrateur
Registered: 09-17-2011
Posts: 1,080

Re: Problème d'encodage

Bonsoir

Le plantage viens d'une rupture du pipe :
pipe:: Input/output error

Tu as combien de RAM sur ce PC ?
Peux tu faire un test en réduisant la mémoire allouée à ffdiaporama à 256 Mo dans la boite de configuration du programme ?


Processeur i5 - 8 Go RAM - Manjaro Linux KDE (64 bits) / Windows 7 (64 bits)

Offline

#6 12-05-2012 00:08:53

gouloug
Membre
Registered: 01-10-2012
Posts: 10

Re: Problème d'encodage

Bonsoir,
J’ai 1.6 go de RAM (pour info Pentium [R] 4 CPU 2,6 ghz).
Je ne sais pas comment faire pour réduire la mémoire allouée ou dit autrement comment aller dans la boîte de configuration du programme.
Bonne soirée et à demain.

Offline

#7 12-06-2012 06:11:57

domledom
Administrateur
Registered: 09-17-2011
Posts: 1,080

Re: Problème d'encodage

Bonjour

Il faut cliquer sur le bouton Options (celui avec la clef et le tournevis) pour ouvrir la boite de configuration
Dans le 1er onglet "Options de l'application" change le profil mémoire en 256 Mo


Processeur i5 - 8 Go RAM - Manjaro Linux KDE (64 bits) / Windows 7 (64 bits)

Offline

#8 12-08-2012 00:47:47

gouloug
Membre
Registered: 01-10-2012
Posts: 10

Re: Problème d'encodage

Bonjour,
Je ne peux réduire la mémoire allouée car je n'ai pas dans l'onglet "Options de l'application" le bouton qui permet ce réglage.
La version de FFDiaporama que j'ai chargé est la dernière (Windows XP SP3).

Offline

Board footer